Quick Browse
Movies
TV shows
Music
Games
Applications
Anime
Other

Latest Articles

Friends
Torrents.me
Torrent Download
Free Movies
1337x
RARBG
Torrent Downloads

Only Connect S13E35 Semi Final 1 revittony


    Seeders : 5      Leechers : 4

Hash :7D7887B53BA5E40FAE14C12E3C779D7D426147E0
Added :Yesterday in TV shows
Size :342.06 MB
Stream :Watch Online Full Movie @ Movie4u
Share :


Only Connect S13E35 Semi Final 1 revittony
Download Direct And Anonymously








Note :

Please Update (Trackers Info) Before Downloading Torrents to See Updated Seeders And Leechers for Batter Download Speed.

Trackers List

Tracker NameLast CheckStatusSeedersLeechers
udp://tracker.leechers-paradise.org:6969/announceYesterdaysuccess52
udp://eddie4.nl:6969/announceYesterdaysuccess52
udp://tracker.coppersurfer.tk:6969/announceYesterdaysuccess44
udp://tracker.pirateparty.gr:6969/announceYesterdaysuccess44
udp://tracker.opentrackr.org:1337/announceYesterdaysuccess41
udp://9.rarbg.me:2710/announceYesterdaysuccess31
udp://tracker.vanitycore.co:6969/announceYesterdaysuccess31
udp://9.rarbg.to:2710/announceYesterdaysuccess31
udp://ipv4.tracker.harry.lu:80/announceYesterdaysuccess20
udp://public.popcorn-tracker.org:6969/announceYesterdaysuccess21
udp://tracker.x4w.co:6969/announceYesterdaysuccess00
http://tracker.trackerfix.com/announceYesterdaysuccess00
udp://asnet.pw:2710/announceYesterdaysuccess00
http://bigfoot1942.sektori.org:6969/announceYesterdaysuccess00
http://announce.torrentsmd.com:6969/announceYesterdaysuccess00
udp://castradio.net:6969/announceYesterdaysuccess00
udp://tracker.zer0day.to:1337/announceYesterdaysuccess00
http://tracker.opentrackr.org/announceYesterdaysuccess00
udp://tracker.mgtracker.org:2710/announceYesterdaysuccess00
udp://mgtracker.org:6969/announceYesterdaysuccess00
udp://tracker.sktorrent.net:6969/announceYesterdaysuccess00
udp://tracker.pomf.se:80/announceYesterdaysuccess00
udp://tracker.internetwarriors.net:1337/announceYesterdaysuccess00
udp://tracker.mg64.net:6881/announceYesterdaysuccess00
udp://explodie.org:6969/announceYesterdaysuccess00
http://tracker2.wasabii.com.tw:6969/announceYesterdaysuccess00
udp://p4p.arenabg.ch:1337/announceYesterdaysuccess00
udp://tracker.blackunicorn.xyz:6969/announceYesterdaysuccess00
udp://tracker4.piratux.com:6969/announceYesterdaysuccess00
udp://glotorrents.pw:6969/announceYesterdaysuccess00
udp://tracker.trackerfix.com:80/announceYesterdaysuccess00




Torrent File Content (1 file)


     Only Connect S13E35 Semi Final 1.mp4 -
342.06 MB



Description



TV : Other : HD : English
Format : MPEG-4
Format profile : Base Media
Codec ID : isom (isom/iso2/avc1/mp41)
Overall bit rate mode : Variable
Overall bit rate : 2 405 kb/s

Video
ID : 1
Format : AVC
Format/Info : Advanced Video Codec
Format profile : [email protected]
Format settings, CABAC : Yes
Format settings, RefFrames : 2 frames
Codec ID : avc1
Codec ID/Info : Advanced Video Coding
Bit rate mode : Variable
Bit rate : 2 306 kb/s
Maximum bit rate : 3 500 kb/s
Width : 1 280 pixels
Height : 720 pixels
Display aspect ratio : 16:9
Frame rate mode : Constant
Frame rate : 25.000 FPS
Color space : YUV
Chroma subsampling : 4:2:0
Bit depth : 8 bits
Scan type : Progressive
Bits/(Pixel*Frame) : 0.100
Stream size : 478 MiB (96%)

Audio
ID : 2
Format : AAC
Format/Info : Advanced Audio Codec
Format profile : LC
Codec ID : 40
Bit rate mode : Constant
Bit rate : 93.5 kb/s
Channel(s) : 2 channels
Channel positions : Front: L R
Sampling rate : 48.0 kHz
Frame rate : 46.875 FPS (1024 SPF)
Compression mode : Lossy
Stream size : 19.4 MiB (4%)
Default : Yes
Alternate group : 1

Related torrents

Torrent NameAddedSizeSeedLeechHealth
1 Year+ - in TV shows310.43 MB00
1 Year+ - in TV shows311.59 MB00
15 days ago - in Other495.07 MB00
15 days ago - in TV shows495.07 MB00
22 days ago - in TV shows498.45 MB52
22 days ago - in TV shows498.45 MB21

Note :

Feel free to post any comments about this torrent, including links to Subtitle, samples, screenshots, or any other relevant information. Please Dont Download anything from Comments, And Dont Post Links to Streaming Sites like Fmovies, Xmovies8, 123Movies, GoMovies, CMovieshd, Solarmovie, Watchfree, Putlockers, GoStream, m4ufree etc.

Comments (0 Comments)




Please login or create a FREE account to post comments

Latest Searches

| innocence nikki | set beach | I wana | cali blake | Kalki 2017 Tamil 720p HD AVC MP4 x264 700MB ESubs | Why We Buy The science of shopping Paco Underhill | the freedom of flight | Galaxy Tab 8 9 P7300 | salt x265 1080p | more than 2009 |