Quick Browse
Movies
TV shows
Music
Games
Applications
Anime
Other

Latest Articles

Friends
RARBG
Torrents.me
Torrent Download
Movie4u
1337x
Torrent Downloads

LimeTorrents

Verified torrent Dracula in Love (2018) 720p HDRip x264 AAC by Full4movies


    Seeders : 9      Leechers : 6

Hash :AFB516F7CD17D2D7D6501CE295F45859275811DE
Added :5 days ago by India4movieVerified torrent uploader in Movies
Size :753.62 MB
Stream :Watch Online Full Movie @ Movie4u
Share :









Note :

Please Update (Trackers Info) Before Downloading Torrents to See Updated Seeders And Leechers for Batter Download Speed.

Trackers List

Tracker NameLast CheckStatusSeedersLeechers
udp://tracker.tiny-vps.com:6969/announceYesterdaysuccess95
udp://tracker.opentrackr.org:1337/announceYesterdaysuccess85
udp://tracker.coppersurfer.tk:6969/announceYesterdaysuccess86
udp://tracker.pirateparty.gr:6969/announceYesterdaysuccess86
udp://public.popcorn-tracker.org:6969/announceYesterdaysuccess75
udp://tracker.internetwarriors.net:1337/announceYesterdaysuccess00
udp://tracker.vanitycore.co:6969/announceYesterdaysuccess00
http://tracker2.wasabii.com.tw:6969/announceYesterdaysuccess00




Torrent File Content (1 file)


     Dracula in Love (2018) 720p HDRip x264 AAC by Full4movies.mkv -
753.62 MB



Description



http://extraimage.net/images/2018/07/12/641b090f49fcadcb70d4e7b37a020fb1.jpg


General
Complete name : Dracula in Love (2018) 720p HDRip x264 AAC by Full4movies.mkv
Format : Matroska
Format version : Version 4 / Version 2
File size : 754 MiB
Duration : 1 h 23 min
Overall bit rate : 1 266 kb/s
Movie name : www.Full4movies.co
Encoded date : UTC 2018-07-11 15:32:33
Writing application : mkvmerge v8.1.0 ('Psychedelic Postcard') 32bit
Writing library : libebml v1.3.1 + libmatroska v1.4.2

Video
ID : 1
Format : AVC
Format/Info : Advanced Video Codec
Format profile : [email protected]
Format settings, CABAC : Yes
Format settings, RefFrames : 4 frames
Codec ID : V_MPEG4/ISO/AVC
Duration : 1 h 23 min
Bit rate : 1 200 kb/s
Width : 1 280 pixels
Height : 528 pixels
Display aspect ratio : 2.40:1
Frame rate mode : Variable
Frame rate : 23.976 FPS
Color space : YUV
Chroma subsampling : 4:2:0
Bit depth : 8 bits
Scan type : Progressive
Bits/(Pixel*Frame) : 0.074
Stream size : 714 MiB (95%)
Writing library : x264 core 155 r2901 7d0ff22
Default : Yes
Forced : No
Color range : Limited
Color primaries : BT.601 NTSC
Transfer characteristics : BT.709
Matrix coefficients : BT.601

Audio
ID : 2
Format : AAC
Format/Info : Advanced Audio Codec
Format profile : LC
Codec ID : A_AAC
Duration : 1 h 23 min
Bit rate : 64.3 kb/s
Channel(s) : 2 channels
Channel positions : Front: L R
Sampling rate : 48.0 kHz
Frame rate : 46.875 FPS (1024 SPF)
Compression mode : Lossy
Delay relative to video : -21 ms
Stream size : 38.3 MiB (5%)
Language : English
Default : Yes
Forced : No

Screen Shoots
http://extraimage.net/images/2018/07/12/ddb082ed797316b1e36c8cde991833c0.jpg

Related torrents

Torrent NameAddedSizeSeedLeechHealth
6 days ago - in Movies754.45 MB12463
14 days ago - in Movies785.72 MB20
Verified torrent
5 days ago - in Movies1 GB33
6 days ago - in Movies744 MB102
Verified torrent
11 days ago - in Movies689.04 MB30

Note :

Feel free to post any comments about this torrent, including links to Subtitle, samples, screenshots, or any other relevant information. Please Dont Download anything from Comments, And Dont Post Links to Streaming Sites like Fmovies, Xmovies8, 123Movies, GoMovies, CMovieshd, Solarmovie, Watchfree, Putlockers, GoStream, m4ufree etc.

Comments (0 Comments)




Please login or create a FREE account to post comments

Latest Searches

| invan nipples | Ace Frehley Frehleys Comet | kenna james jillian | mm 11 11 11 | Sniper Inside The Crosshairs 720p | mae brussell archive | apes yify 1080p | I pretty 2018 | diskaid keygen mac | jerk duo | december 2011 pdf | in my feelings h | Bang Europe 22 720p WEBRip MP4 V | don t tell my gf luna | Anna Rose Afrodity y Shower |
Sitemap