Quick Browse
Movies
TV shows
Music
Games
Applications
Anime
Other

Latest Articles

Friends
RARBG
Torrents.me
Torrent Download
Movie4u
1337x
Torrent Downloads

LimeTorrents

Verified torrent Before Someone Gets Hurt (2018) HDRip x264 AAC by Full4movies


    Seeders : 3      Leechers : 1

Hash :BF085C61CD6EA05EE335508FA152A24408B4CD6C
Added :4 days ago by India4movieVerified torrent uploader in Movies
Size :447.82 MB
Stream :Watch Online Full Movie @ Movie4u
Share :









Note :

Please Update (Trackers Info) Before Downloading Torrents to See Updated Seeders And Leechers for Batter Download Speed.

Trackers List

Tracker NameLast CheckStatusSeedersLeechers
udp://tracker.opentrackr.org:1337/announce2 hours agosuccess31
udp://tracker.coppersurfer.tk:6969/announce2 hours agosuccess31
udp://tracker.pirateparty.gr:6969/announce2 hours agosuccess31
udp://tracker.tiny-vps.com:6969/announce2 hours agosuccess21
udp://public.popcorn-tracker.org:6969/announce2 hours agosuccess21
udp://tracker.vanitycore.co:6969/announce2 hours agosuccess10
udp://tracker.internetwarriors.net:1337/announce2 hours agosuccess00




Torrent File Content (1 file)


     Before Someone Gets Hurt (2018) HDRip x264 AAC by Full4movies.mkv -
447.82 MB



Description



http://extraimage.net/images/2018/07/12/bfd63e49dd9d3a539755f119a941ba43.jpg


General
Complete name                  : Before Someone Gets Hurt (2018) HDRip x264 AAC by Full4movies.mkv
Format                         : Matroska
Format version                 : Version 4 / Version 2
File size                      : 448 MiB
Duration                       : 1 h 25 min
Overall bit rate               : 732 kb/s
Movie name                     : www.Full4movies.co
Encoded date                   : UTC 2018-07-11 15:31:52
Writing application            : mkvmerge v8.1.0 ('Psychedelic Postcard') 32bit
Writing library                : libebml v1.3.1 + libmatroska v1.4.2

Video
ID                             : 1
Format                         : AVC
Format/Info                    : Advanced Video Codec
Format profile                 : [email protected]
Format settings, CABAC         : Yes
Format settings, RefFrames     : 5 frames
Codec ID                       : V_MPEG4/ISO/AVC
Duration                       : 1 h 25 min
Bit rate                       : 640 kb/s
Width                          : 720 pixels
Height                         : 400 pixels
Display aspect ratio           : 16:9
Frame rate mode                : Constant
Frame rate                     : 23.976 FPS
Color space                    : YUV
Chroma subsampling             : 4:2:0
Bit depth                      : 8 bits
Scan type                      : Progressive
Bits/(Pixel*Frame)             : 0.093
Stream size                    : 387 MiB (86%)
Writing library                : x264 core 148 r2643 5c65704
Default                        : Yes
Forced                         : No

Audio
ID                             : 2
Format                         : AAC
Format/Info                    : Advanced Audio Codec
Format profile                 : LC
Codec ID                       : A_AAC
Duration                       : 1 h 25 min
Bit rate                       : 96.0 kb/s
Channel(s)                     : 2 channels
Channel positions              : Front: L R
Sampling rate                  : 48.0 kHz
Frame rate                     : 46.875 FPS (1024 SPF)
Compression mode               : Lossy
Delay relative to video        : -21 ms
Stream size                    : 59.3 MiB (13%)
Language                       : English
Default                        : Yes
Forced                         : No

Screen Shoots
http://extraimage.net/images/2018/07/12/60d603b28b76bc1e59d5272e73262d60.jpg

Related torrents

Torrent NameAddedSizeSeedLeechHealth
5 days ago - in Movies712.11 MB123
Verified torrent
6 days ago - in Movies1.29 GB12927
6 days ago - in Movies1.29 GB122
6 days ago - in Movies1.29 GB31
6 days ago - in Movies1.29 GB72

Note :

Feel free to post any comments about this torrent, including links to Subtitle, samples, screenshots, or any other relevant information. Please Dont Download anything from Comments, And Dont Post Links to Streaming Sites like Fmovies, Xmovies8, 123Movies, GoMovies, CMovieshd, Solarmovie, Watchfree, Putlockers, GoStream, m4ufree etc.

Comments (0 Comments)




Please login or create a FREE account to post comments

Latest Searches

| hiphop reggae rnb | marie phoenix naughty | wwe raw 14 4 | iSkysoft iMedia Converter Deluxe 10 2 6 | baron de munchhausen | creampie teen black | PfMENTUM | 2003 mercedes c | mammoth mammoth 2015 | Leverage S04e16 17 | the flash s 3 all | elementary s06e11 eztv | memento ebook | 2016 top 20 songs | od zmierzchu do witu 1996 |
Sitemap